#TITLE:Funky Sonic World;
#SUBTITLE:Extended Mix;
#ARTIST:Des-ROW;
#TITLETRANSLIT:;
#SUBTITLETRANSLIT:;
#ARTISTTRANSLIT:;
#CREDIT:;
#BANNER:Funky Sonic World+ - Banner.png;
#BACKGROUND:Funky Sonic World+ - Background.png;
#LYRICSPATH:;
#CDTITLE:!kilgacdtitle.png;
#MUSIC:08-Funky sonic World+.mp3;
#OFFSET:-0.540;
#SAMPLESTART:98.800;
#SAMPLELENGTH:19.300;
#SELECTABLE:YES;
#BPMS:0.000=200.000;
#STOPS:;
#BGCHANGES:;
// cache tags:
#FIRSTBEAT:0.000;
#LASTBEAT:630.000;
#SONGFILENAME:Songs/Music V.I.P ^_^/Funky Sonic World+ (Kilga)/Funky Sonic World+.sm;
#HASMUSIC:1;
#HASBANNER:1;
#MUSICLENGTH:192.788;
// end cache tags

//---------------dance-single - Heavy----------------
#NOTES:
     dance-single:
     Heavy:
     Hard:
     11:
     1.000,1.000,1.000,0.036,0.521,1416.000,620.000,7.000,0.000,0.000:
0001
1000
0100
1000
0001
0000
0000
0000
0001
0010
0100
1000
0100
0010
0100
0010
,
0001
1000
0100
1000
0010
1000
0100
0010
1001
0000
0000
0000
0110
0000
0000
0000
,
1001
0010
0100
0001
1100
0010
0001
1000
,
0011
0001
0101
0010
1010
0100
1100
1000
,
0110
0001
0100
1000
0011
0100
0010
1000
,
0101
0000
0010
0000
0100
0000
0001
0000
1010
0000
0001
0000
1000
0000
0010
0100
,
1001
1100
1010
1001
0010
0110
0001
1001
,
1100
0010
1010
1000
0101
0001
0011
0100
,
1010
0001
0010
0100
0101
0010
0100
1000
,
0011
0000
0100
0000
1100
0000
0011
0000
0001
0000
0011
0000
0010
0100
0001
1000
,
0110
0000
0110
0000
0110
0000
0101
0000
1000
0001
1100
0000
0001
1000
0001
1000
,
0110
0000
0110
0000
0001
0010
0001
0010
0100
1000
0100
1000
0100
0001
0010
1000
,
0101
0000
0101
0000
1000
0010
1000
0100
1000
0010
0100
0010
0001
0100
0010
0100
,
1000
0100
1000
0001
1000
0100
1000
0001
1100
0000
0000
0000
0000
0000
0000
0000
,
1001
0010
0100
1000
0110
0001
0100
0010
,
0011
0001
1100
0001
0101
0001
1100
0001
,
0101
0100
1100
1010
0010
0110
1001
0110
,
1010
1000
0101
1010
0100
0011
1100
0011
,
1001
1000
0001
1000
0110
0100
0001
0010
,
0101
0010
1100
1000
0011
0001
1100
0010
,
1001
1000
0110
1001
0001
0110
1001
0010
,
0100
0000
1100
0000
0010
0100
0010
0100
0011
0000
0100
0000
1001
0010
0100
1000
,
0021
0000
0000
0000
0130
0000
1000
0001
1010
0000
0000
0000
0100
0000
0011
0000
,
0000
0000
1001
0100
1001
0000
0000
0000
0010
0000
0100
0000
0011
0000
0100
0000
,
2001
0000
0000
0000
3010
0000
0010
0100
0011
0000
1000
0100
0010
0001
1000
0000
,
0110
0000
0001
0000
1100
0000
0001
0000
0011
1000
0100
1000
0001
0100
0010
1000
,
0201
0000
0000
0000
0310
0000
0011
1000
0101
0000
0000
0000
0101
0000
1100
0000
,
0000
0000
0110
0000
1001
0000
1100
0000
1001
0000
0100
1000
0001
0000
0001
0000
,
1001
0100
0100
0110
1001
0010
0010
0110
,
1001
0010
0101
0010
1100
0110
0001
1100
,
0101
0011
1001
0011
0101
0001
1001
0011
,
1100
0000
1000
0000
1001
0010
0001
0010
0100
1000
0100
0010
0001
1000
0001
1000
,
0110
1000
0100
0010
0100
0010
0001
0010
,
1100
0100
0110
1000
0101
0100
0110
0010
,
0011
1000
0101
0110
0001
1010
1100
0010
,
1001
1000
1010
0100
0101
0010
1010
0001
,
1100
0001
1010
1001
1000
0101
0011
0100
,
0110
0001
0110
1010
0110
0010
1100
1100
,
0011
0010
0011
0001
0011
1010
0100
0011
,
1100
0000
1010
0000
0101
0000
0011
0000
0001
0000
1001
0010
0100
1000
0010
0100
,
1001
0010
0001
0100
0001
0010
0100
0010
,
1001
0100
0011
1000
0101
1000
0011
1000
,
0110
0001
1010
1100
0001
1100
0011
1000
,
0010
0000
0100
0000
1001
0000
0100
0000
1001
0000
0100
0000
1001
0010
0100
0000
,
0011
0010
0100
0101
0011
0101
0010
0110
,
1100
1010
0100
0011
0101
0001
0101
1000
,
0101
0100
1001
1001
0101
0010
0100
0010
,
1100
0000
0001
0000
1000
0000
0010
0000
0101
0000
0010
0000
0001
0010
0100
1000
,
0011
0101
0011
1001
0011
0101
0011
1001
,
1100
1010
1100
0110
1100
1010
1100
0110
,
1100
1001
0110
1001
0100
0100
1000
0100
,
0001
0010
0001
0010
0100
1000
0100
0010
0001
1000
0010
1000
0100
0010
0001
0100
,
1001
0010
0100
0010
1001
0010
0100
0010
,
0011
0001
0101
0001
1001
1000
1010
1000
,
1100
0001
0100
0001
1100
0010
0100
0010
,
0110
0000
0001
0000
1000
0100
1000
0000
0101
0010
0001
0000
1000
0100
1000
0000
,
0011
0101
1001
0011
0100
0011
0010
0101
,
1100
1000
1010
0010
0110
0100
0101
0001
,
0011
0010
0100
0010
1100
0001
1000
0010
,
0110
0000
0110
0000
1010
0000
0110
0000
0001
0000
0110
0000
0001
1000
0001
1000
,
0101
0000
0101
0000
0101
0000
1100
0000
1000
0010
0100
0000
0001
0100
0010
0001
,
1100
0000
1100
0000
0001
0010
0001
0010
0100
1000
0100
0010
0001
0000
0000
0000
,
0001
0100
0001
0100
0010
0100
0001
1000
0001
0100
1000
0100
0010
0100
1000
0100
,
0010
0100
0001
1000
0001
0010
0100
1000
0100
0011
0000
0000
0000
0000
0000
0000
,
1001
0001
1000
0010
0100
1000
0001
1000
,
0101
0001
1100
0010
0110
0010
1100
0010
,
0110
0010
1100
0110
0001
0101
0011
0101
,
0110
1000
0011
0110
0001
1010
0101
1100
,
1001
0010
0100
0100
1000
0010
0001
0010
,
0110
0010
0101
0010
0011
0010
0101
0010
,
0011
1000
0101
0011
1000
0101
0011
1000
,
0110
0000
0110
0000
0001
0100
0001
0100
0010
0100
0010
0100
1000
0100
1000
0100
,
0021
0000
0000
0000
0031
0000
0100
1000
0101
0000
0000
0000
0010
0000
1010
0000
,
0000
0000
0011
0100
0011
0000
0000
0000
0100
0000
1000
0000
0101
0000
0010
0000
,
0102
0000
0000
0000
1003
0000
0100
0001
0110
0000
0010
0100
0001
1000
0010
0000
,
1010
0000
0100
0000
0110
0000
0100
0000
0101
0010
0100
0001
1000
0010
0100
0010
,
2100
0000
0000
0000
3100
0000
0011
0100
1001
0000
0000
0000
0011
0000
1001
0000
,
0000
0000
1001
0000
1100
0000
0110
0000
0101
0000
0010
0000
0001
1000
0010
0100
,
1001
0010
0100
1001
1001
0010
0100
1001
,
1001
1000
0101
0110
0011
0101
0010
1100
,
1100
0110
1010
0101
1100
0011
1010
1100
,
1001
0000
0100
0000
0110
0000
0100
0000
1001
0010
0001
0010
0100
1000
0100
1000
,
0101
0010
0100
0010
1000
0100
0001
0100
,
1010
0010
0110
0001
0110
1000
0110
0001
,
1010
0100
0101
0011
0010
1100
1001
0010
,
1100
0100
0101
1000
0101
0010
0101
1000
,
0011
0010
0110
1001
1000
1100
0011
0100
,
1010
0100
0011
0101
0110
1000
0011
0011
,
1001
0010
1100
1010
1001
1010
0001
1100
,
0110
0110
0110
1001
0000
0101
0000
0110
,
1001
0010
0001
0010
0100
0010
1000
0100
,
0011
0010
1010
0100
1010
0001
1010
0100
,
1100
0001
1010
0110
1000
0101
0011
0010
,
0110
0100
1001
0100
1001
0100
1001
0100
,
1001
0010
1000
0110
0101
0110
1000
0110
,
1100
1100
0100
1010
1010
0001
1010
0100
,
1010
0001
1001
1001
1100
0010
1000
0010
,
0101
0000
0010
0000
0100
0000
1000
0000
0110
0000
1000
0000
0001
1000
0001
1000
,
0110
0101
0110
1010
0110
0101
0110
1010
,
1001
0011
1001
1100
1001
0011
1001
1100
,
0001
0010
0001
0010
0100
1000
0100
1000
0001
0010
0100
0010
0001
1000
0010
0100
,
0010
1000
0100
1000
0001
0010
0100
0010
0001
1000
0010
0100
0001
0010
1000
0100
,
0011
0101
1001
0000
,
0000
0011
0101
0110
1010
0110
0101
0011
,
1100
1010
1001
0101
0011
0101
1001
1010
,
0110
1010
0011
1010
1100
0011
0101
0110
,
1001
0000
0101
0110
0110
1100
1100
1100
,
1010
1100
1100
1001
1100
1100
0110
1100
,
1100
0110
0011
0110
0101
0110
1010
0110
,
0101
0000
0011
0000
0011
0000
1001
0000
0012
0000
1000
0100
1000
0000
0103
0000
,
1001
0000
0000
0000
0011
0000
0011
0100
0011
0000
0110
0000
1010
0000
0110
0000
,
0000
0000
0110
0000
1100
0000
0110
0000
0001
0100
0011
0000
1100
0000
0011
0000
,
0000
0000
1001
0000
0110
0000
1001
0100
1000
0000
0101
0010
1001
0000
0101
0000
,
0000
0000
1100
0000
0110
0000
0011
0000
0001
0010
0100
1000
0010
0100
0001
1000
,
0101
0000
0000
0000
0101
0000
1000
0001
1000
0100
0001
1000
0001
0100
0010
0000
,
0000
0000
0101
0000
1010
0000
1100
0000
0001
0010
0100
1000
0011
0000
1001
0000
,
0100
0010
1000
0010
0100
0010
0001
0010
0100
1000
0100
0010
0001
1000
0001
0010
,
0100
0001
0100
0001
1000
0001
0010
0001
1000
0010
0100
0001
1000
0100
0010
0001
,
1100
0001
0010
0001
0100
0010
1000
0001
,
0110
0010
0011
0100
0011
1000
0011
0100
,
0101
1000
0011
1100
0100
1010
1001
0010
,
0101
0100
1100
0001
1100
0010
1100
0001
,
0110
0100
1001
0011
0100
1100
0110
0001
,
1100
1000
0011
0011
1010
0100
0011
0011
,
0101
0100
0101
1000
0101
1010
0100
0101
,
0110
1100
1010
0110
0000
1010
0000
0000
,
1001
0010
0100
1000
0100
0010
0001
0010
,
0101
0100
0110
1000
0110
0001
0110
1000
,
1010
0100
0101
0110
0001
1100
0011
0100
,
1001
1000
1100
0010
1100
0001
1100
1010
,
1001
1100
0100
0011
0101
0011
1000
0110
,
1001
0101
0100
1010
0101
0010
0101
1000
,
0101
0010
0011
0110
1100
0001
0100
0001
,
1010
0000
0100
0000
0010
0000
0001
0000
0110
0000
1000
0000
0001
0010
0100
1000
,
0101
0101
0101
0101
0101
0101
0101
0101
,
1010
1010
1010
1010
1010
1010
1010
1010
,
0110
0110
0110
0110
1000
0001
0100
0001
,
1000
0100
0010
0001
1000
0010
0100
0001
0010
0100
1000
0010
1000
0001
0100
0001
,
1010
0100
0001
0100
0010
1000
0010
1000
,
0101
0010
1010
0100
1010
0001
1010
0100
,
0101
0100
0110
1100
1000
0011
1001
0100
,
0110
0100
0101
0010
0101
1000
0101
0010
,
0011
1000
1100
0110
0001
1001
0110
0010
,
1100
1000
0101
0110
0101
0010
1100
1100
,
0110
0001
0110
1000
0110
1001
0010
0110
,
1100
1010
0101
0011
0000
1001
0000
0110
,
1001
0010
0001
0010
0100
1000
0100
0010
,
1100
1000
1001
0010
1001
0100
1001
0010
,
0101
1000
0011
0101
0100
1010
1100
0010
,
0101
0001
0011
1000
0011
0100
0011
0101
,
0110
0011
0100
1010
1100
1010
1000
0101
,
0110
0110
0001
0110
1100
0010
0110
0100
,
0011
0100
1001
1001
1010
0100
0010
0001
,
1100
0000
0100
0000
0001
0010
0100
1000
0110
0000
0100
0000
1000
0100
0010
0001
,
0010
0100
0001
0100
0010
1000
0100
1000
0001
0010
0100
0010
0001
1000
0010
1000
,
0100
1000
0001
1000
0100
0010
0001
0010
0100
1000
0010
0100
0010
0100
0001
0010
,
1000
0001
0100
1000
0010
1000
0010
0100
0001
0010
1000
0100
0001
1000
0010
0100
,
1001
0100
1001
0100
1001
0000
0000
0000
;

//---------------dance-single - Standard----------------
#NOTES:
     dance-single:
     Standard:
     Medium:
     10:
     1.000,1.000,1.000,0.010,0.052,1160.000,345.000,2.000,0.000,0.000:
0100
0000
0100
0000
,
0001
0010
1000
0010
0001
0000
1001
0000
,
0011
1000
0010
1000
0100
0010
0100
0001
,
1100
0001
0010
0001
0100
0010
1000
0100
,
1010
0001
1000
0001
0100
0010
0001
0100
,
0011
0000
0100
0000
0010
0000
1000
0000
0100
0000
1000
0000
0001
0000
0010
0100
,
1001
0010
0100
0010
0100
0001
1000
0100
,
0011
0100
1000
0010
1000
0001
0100
0001
,
1100
0010
0100
0010
0001
1000
0010
0100
,
0011
1000
0100
0010
0001
0010
0100
1000
,
0100
0100
0100
0101
0000
1100
0000
0000
,
0010
0010
0010
1010
0000
0011
0000
0000
,
0001
0001
0001
0110
0000
0110
0000
0000
,
1000
1000
1000
1000
1001
0000
0000
0000
,
1001
0010
0100
0001
0100
0010
1000
0100
,
0010
0001
0110
0100
1001
0010
0110
0001
,
1100
0001
1100
0101
0000
0101
0010
0100
,
1010
0001
1010
0011
0000
0100
0100
0100
,
1001
0100
1000
0100
1000
0001
0100
1000
,
0010
0100
0011
0001
1100
1000
0011
1000
,
0101
0010
1010
0101
0000
1010
0101
0000
,
0001
0110
0100
0100
1001
0000
0110
0000
,
0101
0000
1000
0000
0011
0000
0100
1001
,
0000
0110
0110
0000
1000
0100
0011
0000
,
1100
0010
0001
0000
0110
0001
1000
0000
,
1001
0000
0110
0000
1010
0101
0000
0100
,
1010
0000
0010
1100
0101
0000
0101
1100
,
0000
0101
0100
0100
1100
0000
0010
1000
,
0101
0010
0001
1100
0101
0000
0001
1010
,
0101
0000
1001
0010
1001
0110
0000
1100
,
0010
0010
0010
0010
1010
1000
0101
0001
,
1010
0001
0110
1000
0011
0100
0010
0100
,
1001
0010
0100
0010
0100
0001
1000
0001
,
1010
0100
0001
1000
0011
0100
0001
1000
,
0101
0010
0001
0100
1000
0001
1000
0001
,
0110
0001
1000
0010
1100
0001
1000
0010
,
1001
0010
1000
0010
0001
0100
1000
0010
,
1100
0001
0010
0100
1010
0001
1000
0100
,
1001
0010
0100
1000
0101
0010
0100
1000
,
0010
0010
0010
1001
0000
0110
0000
0100
,
1001
0010
0100
0001
0100
0010
0100
1000
,
0101
0010
0001
0010
1100
0001
0100
0001
,
1010
0001
1000
0010
1000
0010
1000
0100
,
0011
1000
0100
0001
0110
1000
0010
0100
,
1001
0100
0010
0001
1000
0100
0010
0001
,
1100
0010
1000
0010
0101
1000
0100
0010
,
1100
0001
1000
0001
1010
0100
1000
0010
,
0101
0010
0100
0010
1001
0010
1000
0100
,
0011
0010
0010
0010
1010
0010
0010
0010
,
1100
0100
0100
0100
0101
0100
0100
0100
,
0010
0100
0001
1000
0001
0010
0100
1000
,
0001
1000
0001
1000
0001
1000
0001
1000
0001
0000
0000
0000
0000
0000
0000
0000
,
1001
0100
0001
0100
1000
0010
0100
0001
,
1100
1010
0101
0011
,
0110
0001
0100
0010
0100
0001
0100
0010
,
1100
0000
0001
0000
1000
0000
0001
0000
0100
0000
0001
0000
0100
0000
0010
0100
,
1001
0010
0100
1000
0010
0100
1000
0100
,
0011
0101
1010
1100
,
1001
0100
0001
0100
0010
1000
0010
0001
,
1000
0100
0010
0101
0000
1010
0000
0000
,
0001
0001
0001
0101
0000
0011
0000
0000
,
1000
1000
1000
1010
0000
1100
0000
0000
,
0010
0010
0010
1010
0000
0011
0000
0000
,
0100
0100
0100
0100
0110
0000
0000
0000
,
1001
0100
0010
0100
1000
0100
0001
0010
,
0001
0100
1010
0100
0011
0100
1010
0100
,
0011
0100
1010
0101
0000
0100
0100
0100
,
0011
1000
0011
1100
0000
0010
0010
0010
,
1001
1000
0001
1000
0010
0100
0001
0100
,
1000
0001
1100
0010
0101
0010
1100
0010
,
0101
0010
1100
0101
0000
0011
1010
0000
,
0100
0001
0110
1000
0011
1000
0101
1000
,
0011
0000
0100
0000
1010
0000
1000
0011
,
0000
0110
0110
0000
0010
0100
1001
0000
,
1100
0010
0100
0000
1010
0001
1000
0000
,
1100
0000
0101
0000
1001
0110
0000
0001
,
1100
0000
0001
1100
0110
0000
0110
0011
,
0000
1100
0100
0100
0101
0000
0100
0000
,
1001
0010
0100
1001
1001
0010
0001
0110
,
0110
0000
1010
0010
0010
0110
1000
0010
,
0101
0100
1100
0100
0101
0100
1100
0000
,
1001
0000
0110
0000
1001
0010
0100
0010
,
1001
0010
0100
0001
0010
1000
0010
0001
,
1100
0001
0010
1000
0101
0010
0001
1000
,
0011
1000
0100
0010
0001
0100
0010
0001
,
1010
0100
1000
0010
1001
0100
0001
1000
,
0110
0001
0010
0001
0100
0001
1000
0001
,
1100
0010
0100
1000
0011
1000
0100
0010
,
1001
0100
1000
0001
0110
1000
0010
0001
,
0100
0100
0100
0101
0000
1100
0000
0001
,
0110
1000
0001
1000
0100
0010
0100
0001
,
1010
0100
0010
0001
1100
0010
1000
0010
,
0101
1000
0100
0010
0100
1000
0001
1000
,
0011
1000
0100
0001
0110
1000
0010
0100
,
1001
0010
0100
0001
0100
0010
0100
0001
,
1010
0100
1000
1000
0101
0010
0001
0001
,
1100
0010
0100
1000
0011
0100
0010
0001
,
0110
1000
0001
0100
1001
0010
1000
0001
,
1100
1000
1000
1000
1010
1000
1000
1000
,
0011
0001
0001
0001
0101
0001
0001
0001
,
0110
0100
0100
0100
0110
0010
0010
0010
,
0001
1000
0001
1000
0001
1000
0001
1000
0001
1000
0001
1000
0001
0000
0000
0000
,
0101
0000
0110
0000
1010
0000
0001
0100
,
1000
0100
0010
1000
0101
0010
1000
0100
,
1001
0010
0001
0010
1100
0001
1000
0100
,
0011
1000
0100
0001
0110
1000
0001
1000
,
0101
0000
1100
0001
0001
0100
0100
0100
,
0011
0100
0100
1010
0100
0100
0011
0100
,
1001
0100
0010
0001
0100
0010
0100
1000
,
0101
0010
1000
0100
2002
0000
3003
0100
,
0011
0000
0011
1100
0010
0010
0010
1001
,
0000
0101
0100
1100
0000
0011
0010
1010
,
0000
1100
1000
1001
0000
0011
0001
1001
,
0000
0110
1001
0110
0000
0010
0100
0010
,
1100
0000
0011
0001
0011
0100
1000
0101
,
0000
1010
0100
0011
0000
1100
0010
0101
,
1001
0010
0100
1000
0101
0010
0001
0100
,
0011
0100
0010
0001
0110
1000
0101
0010
,
1100
0001
0010
0001
0010
0100
1000
0100
,
1010
0001
1000
0001
0110
1000
0100
0010
,
0101
1000
0100
0010
0001
0010
0100
1000
,
0011
0100
0001
0100
1001
0010
0100
0001
,
1010
0100
0001
0010
0100
1000
0010
0100
,
0011
1000
0100
0001
1100
0001
0010
1000
,
0101
0010
0100
0001
0110
0001
0100
0010
,
1001
1000
1000
1010
0000
1100
0000
0001
,
0110
1000
0100
0001
0100
1000
0001
0010
,
1100
0001
0100
1000
0011
0100
0001
0100
,
1010
0001
0100
0010
0100
1000
0100
0010
,
0101
1000
0001
0100
1001
0010
0100
1000
,
0011
0100
0010
0001
0100
0010
0001
0010
,
1100
0001
0100
0001
1010
0100
0001
0010
,
1100
0010
1000
0010
0101
1000
0100
0001
,
0110
1000
0001
0100
1001
0010
1000
0010
,
0101
0100
0100
0100
1100
0100
0100
0100
,
0011
0010
0010
0010
1010
0010
0010
0010
,
0101
0001
1010
1000
0011
0001
1100
1000
,
0001
1000
0001
1000
0001
1000
0001
1000
0001
1000
0001
1000
0001
1000
0001
1000
,
0001
0100
0010
0100
1000
0001
1000
0010
,
1100
0010
1000
0001
0110
1000
0001
0100
,
1010
0100
0100
0001
0001
1000
1000
0010
,
0101
0010
1000
0100
1001
0010
0100
1000
,
0011
1000
0100
0010
0001
0100
0010
0001
,
1100
0010
0001
0010
0101
1000
0100
1000
,
0011
0100
0001
0100
1010
0100
0010
0001
,
1100
1010
0101
0011
0000
0110
0000
0010
,
1001
0010
0010
0010
0100
0100
0100
0100
,
1010
0001
0001
0001
1100
0010
1000
0100
,
0011
1000
1000
1000
0010
0010
0010
0010
,
0101
1000
0001
1000
0110
0001
1000
0001
,
1001
0010
0100
1000
0100
0010
0001
0010
,
1100
0010
0100
1000
0011
0100
0010
0001
,
1100
0010
0010
0010
0101
1000
0100
0001
,
1010
0100
0100
0100
1001
0010
0001
0010
,
1100
1100
1100
1100
1100
1100
1100
1100
,
0011
0011
0011
0011
0011
0011
0011
0011
,
1010
1010
1010
1010
0101
0101
0101
0101
,
1001
0110
1001
0000
;
